<?xml version="1.0" standalone="no"?>
<!DOCTYPE svg PUBLIC "-//W3C//DTD SVG 1.1//EN" "http://www.w3.org/Graphics/SVG/1.1/DTD/svg11.dtd" >
<svg xmlns="http://www.w3.org/2000/svg">
<metadata>Generated by IcoMoon</metadata>
<defs>
<font id="icomoon" horiz-adv-x="1024">
<font-face units-per-em="1024" ascent="960" descent="-64" />
<missing-glyph horiz-adv-x="1024" />
<glyph unicode="&#x20;" horiz-adv-x="512" d="" />
<glyph unicode="&#xe900;" glyph-name="add-folder" d="M853.344 704h-341.344l-85.344 85.344h-256c-47.36 0-84.896-37.984-84.896-85.344l-0.416-512c0-47.36 37.984-85.344 85.344-85.344h682.656c47.36 0 85.344 37.984 85.344 85.344v426.656c0 47.36-37.984 85.344-85.344 85.344zM810.656 362.656h-128v-128h-85.344v128h-128v85.344h128v128h85.344v-128h128v-85.344z" />
<glyph unicode="&#xe901;" glyph-name="affiliate-cloud1, cloud1" d="M825.6 531.616c-29.024 147.2-158.304 257.696-313.6 257.696-123.296 0-230.4-69.984-283.744-172.384-128.416-13.664-228.256-122.464-228.256-254.304 0-141.216 114.784-256 256-256h554.656c117.76 0 213.344 95.584 213.344 213.344 0 112.64-87.456 203.936-198.4 211.616z" />
<glyph unicode="&#xe902;" glyph-name="affiliate-ease1, smile1" d="M661.344 490.656c35.36 0 64 28.672 64 64s-28.64 64-64 64-64-28.64-64-64c0-35.328 28.64-64 64-64zM362.656 490.656c35.36 0 64 28.672 64 64s-28.64 64-64 64-64-28.64-64-64c0-35.328 28.64-64 64-64zM511.584 874.656c-235.52 0-426.24-191.136-426.24-426.656s190.72-426.656 426.24-426.656c235.936 0 427.104 191.136 427.104 426.656s-191.136 426.656-427.104 426.656zM512 106.656c-188.576 0-341.344 152.736-341.344 341.344s152.736 341.344 341.344 341.344c188.576 0 341.344-152.736 341.344-341.344s-152.736-341.344-341.344-341.344zM298.656 362.656c33.28-99.84 116.064-170.656 213.344-170.656s180.064 70.816 213.344 170.656h-426.656z" />
<glyph unicode="&#xe903;" glyph-name="affiliate-support1, bubble-speech1" d="M853.344 874.656h-682.656c-46.944 0-85.344-38.4-85.344-85.344v-768l170.656 170.656h597.344c46.944 0 85.344 38.4 85.344 85.344v512c0 46.944-38.4 85.344-85.344 85.344z" />
<glyph unicode="&#xe904;" glyph-name="alert-solid" d="M437.088 822.656c32.352 59.296 117.472 59.296 149.824 0l368.256-675.136c31.008-56.864-10.144-126.208-74.912-126.208h-736.512c-64.768 0-105.92 69.344-74.912 126.208l368.256 675.136zM473.408 213.344c0 23.552 19.104 42.656 42.656 42.656s42.656-19.104 42.656-42.656c0-23.552-19.104-42.656-42.656-42.656s-42.656 19.104-42.656 42.656zM516.064 576c-23.552 0-42.656-19.104-42.656-42.656v-170.656c0-23.552 19.104-42.656 42.656-42.656s42.656 19.104 42.656 42.656v170.656c0 23.552-19.104 42.656-42.656 42.656z" />
<glyph unicode="&#xe905;" glyph-name="arrow-down" d="M468.8 880v-680.16l-155.104 171.84-60.928-67.68 259.2-288 259.2 288-60.928 67.68-155.104-171.84v680.16h-86.4z" />
<glyph unicode="&#xe906;" glyph-name="arrow-left" d="M944 491.2h-680.16l171.84 155.104-67.68 60.928-288-259.2 288-259.2 67.68 60.928-171.84 155.104h680.16v86.4z" />
<glyph unicode="&#xe907;" glyph-name="arrow-right" d="M80 404.8h680.16l-171.84-155.104 67.68-60.928 288 259.2-288 259.2-67.68-60.896 171.84-155.104h-680.16v-86.4z" />
<glyph unicode="&#xe908;" glyph-name="arrow-up" d="M555.2 16v680.16l155.104-171.84 60.928 67.68-259.2 288-259.2-288 60.896-67.68 155.104 171.84v-680.16h86.4z" />
<glyph unicode="&#xe909;" glyph-name="cancel-thin" horiz-adv-x="960" d="M907.52 944.416c-19.168 20.768-50.272 20.768-69.44 0l-366.016-396.672-366.016 396.672c-19.168 20.768-50.272 20.768-69.44 0s-19.168-54.464 0-75.264l366.016-396.672-388.256-420.768c-19.168-20.768-19.168-54.464 0-75.264s50.272-20.768 69.44 0l388.256 420.768 388.256-420.8c19.168-20.768 50.272-20.768 69.44 0s19.168 54.464 0 75.264l-388.256 420.8 366.016 396.672c19.168 20.768 19.168 54.464 0 75.264z" />
<glyph unicode="&#xe90a;" glyph-name="caret-down" d="M236.608 698.112l275.392-275.392 275.392 275.392 84.288-84.288-359.68-359.68-359.68 359.68z" />
<glyph unicode="&#xe90b;" glyph-name="caret-left" d="M706.656 216l-80-80-341.344 341.344 341.344 341.344 80-80-261.344-261.344z" />
<glyph unicode="&#xe90c;" glyph-name="caret-right" d="M317.344 200l261.344 261.344-261.344 261.344 80 80 341.344-341.344-341.344-341.344z" />
<glyph unicode="&#xe90d;" glyph-name="caret-up" d="M236.608 242.848l-84.288 84.288 359.68 359.68 359.68-359.68-84.288-84.288-275.392 275.392z" />
<glyph unicode="&#xe90e;" glyph-name="chevron-thin-down" d="M512 281.6l379.904 365.632c13.824 13.728 36.192 13.728 50.112 0 13.824-13.728 13.824-35.904 0-49.6l-404.896-400.896c-13.888-13.728-36.288-13.728-50.112 0l-404.896 400.896c-13.888 13.728-13.824 35.904 0 49.6s36.192 13.728 50.112 0l379.744-365.632z" />
<glyph unicode="&#xe90f;" glyph-name="chevron-thin-left" d="M711.232 68.192c13.728-13.92 13.728-36.288 0-50.112s-35.904-13.888-49.6 0l-400.896 404.896c-13.728 13.824-13.728 36.192 0 50.112l400.896 404.896c13.728 13.824 35.904 13.824 49.6 0s13.728-36.288 0-50.112l-365.632-379.84 365.632-379.808z" />
<glyph unicode="&#xe910;" glyph-name="chevron-thin-right" d="M678.4 448l-365.632 379.904c-13.728 13.824-13.728 36.192 0 50.112 13.728 13.824 35.904 13.824 49.6 0l400.896-404.896c13.728-13.888 13.728-36.288 0-50.112l-400.896-404.896c-13.728-13.888-35.904-13.824-49.6 0s-13.728 36.192 0 50.112l365.632 379.744z" />
<glyph unicode="&#xe911;" glyph-name="chevron-thin-up" d="M512 614.4l-379.904-365.632c-13.824-13.728-36.192-13.728-50.112 0-13.824 13.728-13.824 35.904 0 49.6l404.896 400.896c13.888 13.728 36.288 13.728 50.112 0l404.896-400.896c13.888-13.728 13.824-35.904 0-49.6s-36.192-13.728-50.112 0l-379.744 365.632z" />
<glyph unicode="&#xe912;" glyph-name="canvas-arrow" horiz-adv-x="2832" d="M1935.456 891.688c-10.056 0.104-20.074 0.156-30.048 0.158l0.006 30.118c10.076-0.002 20.194-0.054 30.354-0.16l-0.31-30.116zM1875.604 891.702c-9.894-0.098-19.744-0.246-29.558-0.442l-0.602 30.112c9.912 0.198 19.866 0.348 29.862 0.448l0.298-30.116zM1995.058 890.484c-9.882 0.296-19.722 0.544-29.524 0.742l0.612 30.112c9.9-0.202 19.838-0.452 29.814-0.75l-0.902-30.104zM1816.056 890.5c-10.054-0.308-20.064-0.666-30.030-1.076l-1.238 30.092c10.070 0.414 20.188 0.778 30.35 1.088l0.92-30.104zM2054.8 888.114c-10.036 0.496-20.030 0.938-29.988 1.334l1.192 30.094c10.056-0.4 20.148-0.848 30.278-1.348l-1.482-30.082zM1756.252 888.042c-9.878-0.51-19.714-1.072-29.506-1.684l-1.876 30.058c9.9 0.618 19.842 1.186 29.826 1.704l1.558-30.076zM2114.446 884.612c-9.844 0.672-19.652 1.294-29.426 1.868l1.772 30.066c9.864-0.582 19.766-1.21 29.702-1.888l-2.048-30.048zM1696.796 884.322c-10.022-0.734-19.998-1.522-29.924-2.362l-2.538 30.010c10.040 0.848 20.126 1.646 30.26 2.39l2.204-30.036zM2173.926 880.010c-9.984 0.864-19.934 1.68-29.85 2.446l2.324 30.028c10.006-0.774 20.046-1.598 30.124-2.468l-2.6-30.006zM1637.222 879.29c-9.836-0.942-19.626-1.934-29.368-2.974l-3.202 29.948c9.854 1.052 19.754 2.056 29.7 3.008l2.87-29.982zM2233.632 874.3c-9.914 1.038-19.794 2.028-29.64 2.968l2.868 29.982c9.936-0.952 19.906-1.948 29.908-2.996l-3.136-29.954zM1577.914 872.942c-9.958-1.18-19.866-2.412-29.726-3.694l-3.884 29.866c9.972 1.298 19.994 2.544 30.068 3.738l3.542-29.908zM2292.716 867.598c-9.914 1.21-19.796 2.376-29.642 3.492l3.394 29.926c9.932-1.128 19.898-2.302 29.9-3.524l-3.652-29.896zM1518.76 865.246c-9.824-1.394-19.598-2.838-29.324-4.332l-4.576 29.768c9.838 1.514 19.728 2.974 29.666 4.384l4.232-29.82zM2352.532 859.766c-10.024 1.4-20.012 2.752-29.97 4.054l3.912 29.862c10.042-1.314 20.116-2.678 30.222-4.088l-4.164-29.828zM1459.7 856.16c-9.864-1.638-19.674-3.326-29.428-5.064l-5.286 29.65c9.876 1.76 19.802 3.468 29.78 5.124l4.932-29.71zM2411.088 851.094c-9.82 1.536-19.616 3.028-29.374 4.472l4.41 29.792c9.842-1.456 19.716-2.96 29.618-4.51l-4.652-29.756zM2470.412 841.32c-9.952 1.722-19.87 3.398-29.756 5.026l4.896 29.716c9.966-1.642 19.966-3.332 29.996-5.068l-5.138-29.676zM1401.154 845.728c-9.83-1.874-19.614-3.8-29.338-5.776l-5.996 29.516c9.846 2 19.744 3.948 29.7 5.846l5.634-29.584zM2529.010 830.706c-9.716 1.838-19.398 3.632-29.054 5.382l5.374 29.636c9.732-1.764 19.492-3.572 29.28-5.424l-5.6-29.592zM1342.462 833.8c-9.73-2.102-19.408-4.254-29.028-6.458l-6.722 29.358c9.74 2.23 19.538 4.41 29.388 6.54l6.362-29.438zM2587.648 819.14c-9.834 2.016-19.638 3.99-29.41 5.918l5.828 29.548c9.848-1.942 19.726-3.93 29.636-5.962l-6.054-29.502zM1284.634 820.56c-9.798-2.372-19.538-4.794-29.218-7.266l-7.454 29.18c9.804 2.504 19.664 4.958 29.586 7.358l7.086-29.274zM1226.548 805.724c-9.562-2.574-19.070-5.194-28.518-7.866l-8.192 28.982c9.57 2.706 19.2 5.362 28.888 7.966l7.822-29.084zM1169.248 789.522c-9.608-2.85-19.152-5.748-28.636-8.698l-8.942 28.76c9.612 2.986 19.28 5.926 29.012 8.812l8.566-28.874zM1112.34 771.836c-9.484-3.084-18.904-6.216-28.262-9.396l-9.69 28.516c9.48 3.222 19.028 6.396 28.636 9.52l9.316-28.642zM1055.748 752.6c-9.382-3.326-18.696-6.702-27.95-10.122l-10.446 28.248c9.376 3.468 18.818 6.888 28.322 10.26l10.070-28.384zM1000.044 732.004c-9.388-3.614-18.702-7.276-27.956-10.984l-11.204 27.956c9.376 3.758 18.824 7.468 28.336 11.134l10.824-28.106zM944.544 709.762c-9.15-3.812-18.232-7.67-27.246-11.572l-11.962 27.64c9.14 3.956 18.35 7.866 27.626 11.732l11.582-27.8zM889.796 686.064c-9.092-4.086-18.116-8.216-27.070-12.39l-12.722 27.298c9.076 4.232 18.226 8.42 27.448 12.564l12.342-27.472zM835.994 660.986c-9.066-4.38-18.052-8.8-26.966-13.264l-13.484 26.93c9.042 4.526 18.154 9.012 27.35 13.452l13.1-27.118zM782.51 634.212c-8.808-4.57-17.544-9.178-26.206-13.824l-14.24 26.54c8.784 4.714 17.646 9.388 26.582 14.022l13.864-26.738zM729.952 606c-8.704-4.834-17.332-9.704-25.88-14.612l-14.996 26.118c8.672 4.978 17.424 9.924 26.254 14.826l14.622-26.332zM678.418 576.406c-8.638-5.126-17.192-10.288-25.66-15.486l-15.752 25.672c8.596 5.274 17.272 10.512 26.038 15.712l15.376-25.898zM627.596 545.228c-8.446-5.356-16.806-10.74-25.078-16.158l-16.498 25.196c8.398 5.5 16.884 10.966 25.456 16.4l16.122-25.438zM577.634 512.512c-8.206-5.548-16.324-11.128-24.352-16.734l-17.242 24.692c8.154 5.692 16.394 11.354 24.722 16.988l16.876-24.95zM528.806 478.414c-8.096-5.836-16.098-11.702-24.010-17.586l-17.98 24.16c8.032 5.976 16.158 11.93 24.378 17.858l17.612-24.43zM481.142 442.938c-7.976-6.126-15.85-12.276-23.628-18.444l-18.718 23.594c7.9 6.266 15.896 12.512 23.996 18.734l18.35-23.884zM434.48 405.928c-7.776-6.366-15.444-12.75-23.012-19.15l-19.448 22.998c7.69 6.502 15.48 12.986 23.378 19.452l19.082-23.302zM388.894 367.38c-7.504-6.552-14.9-13.116-22.188-19.692l-20.174 22.366c7.408 6.682 14.924 13.354 22.548 20.010l19.81-22.684zM344.636 327.456c-7.242-6.752-14.376-13.514-21.396-20.274l-20.896 21.692c7.142 6.876 14.39 13.75 21.758 20.616l20.534-22.030zM301.766 286.148c-7.048-7.026-13.978-14.050-20.786-21.068l-21.618 20.972c6.928 7.14 13.976 14.284 21.146 21.428l21.258-21.332zM260.356 243.448c-6.832-7.294-13.534-14.58-20.108-21.85l-22.342 20.194c6.694 7.406 13.516 14.822 20.47 22.246l21.982-20.588zM220.492 199.336c-6.588-7.56-13.034-15.1-19.342-22.616l-23.070 19.36c6.426 7.658 12.996 15.342 19.706 23.044l22.706-19.788zM182.284 153.796c-6.308-7.818-12.466-15.604-18.466-23.352l-23.81 18.444c6.126 7.908 12.404 15.85 18.838 23.822l23.438-18.914zM145.884 106.8c-5.986-8.066-11.802-16.080-17.45-24.040l-24.564 17.426c5.772 8.138 11.716 16.326 17.83 24.564l24.184-17.95zM111.506 58.322c-5.602-8.288-11.018-16.506-16.246-24.644l-25.342 16.274c5.356 8.342 10.902 16.756 16.638 25.242l24.95-16.87zM79.452 8.36c-5.166-8.514-10.116-16.928-14.854-25.232l-26.16 14.92c4.874 8.548 9.962 17.194 15.266 25.934l25.748-15.622zM50.186-43.026c-2.28-4.292-4.502-8.55-6.664-12.774l-26.812 13.716c2.234 4.364 4.526 8.76 6.88 13.192l26.596-14.134zM2829.652 766.71l-251.936-67.508 67.506 251.938 184.432-184.432z" />
<glyph unicode="&#xe913;" glyph-name="credit" d="M563.2 102.144v-114.944h-102.4v109.722c-87.654 5.12-156.979 30.157-217.139 92.006l87.962 89.088c43.981-44.544 103.578-59.392 168.038-59.392 80.128 0 123.136 30.669 123.136 87.142 0 24.73-6.81 45.517-21.504 59.392-13.67 12.851-29.286 19.814-61.542 24.73l-84.070 11.878c-59.597 8.909-103.526 27.699-134.861 58.419-33.178 33.638-49.818 79.155-49.818 138.598 0 110.336 70.758 191.642 189.798 209.92v100.096h102.4v-98.918c70.758-7.424 126.208-31.744 174.848-79.411l-85.965-86.118c-43.981 42.598-96.717 48.486-142.694 48.486-72.294 0-107.469-40.55-107.469-89.088 0-17.818 5.888-36.659 20.531-50.483 13.67-12.902 36.147-23.757 64.512-27.699l82.022-11.878c63.539-8.909 103.578-26.726 132.915-54.426 37.171-35.635 53.76-87.142 53.76-149.504 0-115.2-80.23-187.494-192.461-207.616z" />
<glyph unicode="&#xe914;" glyph-name="credit-card" d="M853.312 789.344h-682.656c-47.36 0-84.896-37.984-84.896-85.344l-0.416-512c0-47.36 37.984-85.344 85.344-85.344h682.656c47.36 0 85.344 37.984 85.344 85.344v512c0 47.36-37.984 85.344-85.344 85.344zM853.312 192h-682.656v256h682.656v-256zM853.312 618.656h-682.656v85.344h682.656v-85.344z" />
<glyph unicode="&#xe915;" glyph-name="dots-three-vertical, more-vertical" d="M512.051 560.64c-62.208 0-112.691-50.432-112.691-112.64s50.483-112.64 112.691-112.64c62.208 0 112.589 50.432 112.589 112.64s-50.381 112.64-112.589 112.64zM512.051 693.76c62.208 0 112.589 50.483 112.589 112.64s-50.381 112.64-112.589 112.64c-62.208 0-112.691-50.432-112.691-112.64s50.483-112.64 112.691-112.64zM512.051 202.24c-62.208 0-112.691-50.432-112.691-112.64s50.483-112.64 112.691-112.64c62.208 0 112.589 50.432 112.589 112.64s-50.381 112.64-112.589 112.64z" />
<glyph unicode="&#xe916;" glyph-name="download" d="M369.792 810.656c0 11.776 9.536 21.344 21.344 21.344h199.104c11.776 0 21.344-9.536 21.344-21.344v-232.544h143.072c18.816 0 28.416-22.56 15.36-36.128l-263.936-274.304c-8.384-8.736-22.368-8.736-30.752 0l-263.936 274.304c-13.056 13.568-3.424 36.128 15.36 36.128h143.040v232.544zM149.344 203.392c-11.776 0-21.344-9.568-21.344-21.344v-54.048c0-11.776 9.536-21.344 21.344-21.344h682.656c11.776 0 21.344 9.568 21.344 21.344v54.048c0 11.776-9.568 21.344-21.344 21.344h-682.656z" />
<glyph unicode="&#xe917;" glyph-name="duplicate" d="M689.024 896.48h-472.096c-43.264 0-78.688-36.704-78.688-81.536v-570.816h78.688v570.816h472.096v81.536zM649.696 733.408l236.032-244.64v-407.712c0-44.864-35.392-81.536-78.688-81.536h-433.152c-43.264 0-78.304 36.704-78.304 81.536l0.384 570.816c0 44.864 35.008 81.536 78.304 81.536h275.392zM610.368 448h216.384l-216.384 224.256v-224.256z" />
<glyph unicode="&#xe918;" glyph-name="duration" d="M511.552 890.656c-244.352 0-442.208-198.304-442.208-442.656s197.888-442.656 442.208-442.656c244.8 0 443.104 198.304 443.104 442.656s-198.304 442.656-443.104 442.656zM512 93.856c-195.648 0-354.144 158.464-354.144 354.144s158.464 354.144 354.144 354.144c195.648 0 354.144-158.464 354.144-354.144s-158.464-354.144-354.144-354.144zM534.144 669.344h-66.4v-265.6l232.384-139.456 33.216 54.432-199.2 118.208v232.384z" />
<glyph unicode="&#xe919;" glyph-name="edit" d="M614.496 596.352l45.792-45.792-450.976-450.976h-45.792v45.792l450.976 450.976zM793.664 896c-12.448 0-25.376-4.992-34.848-14.432l-91.104-91.104 186.656-186.656 91.104 91.104c19.424 19.424 19.424 50.784 0 70.176l-116.48 116.48c-9.952 9.952-22.4 14.432-35.328 14.432zM614.496 737.216l-550.528-550.528v-186.656h186.656l550.528 550.528-186.656 186.656z" />
<glyph unicode="&#xe91a;" glyph-name="edit-bar-duplicate" d="M811.2 888h-494.4c0 0-83.2-36.8-73.6-83.2v-14.4h-40c-46.4 0-83.2-36.8-83.2-83.2v-614.4c0-48 35.2-83.2 83.2-83.2h494.4c46.4 0 83.2 36.8 83.2 83.2v14.4h30.4c51.2 0 91.2 36.8 91.2 83.2v614.4c0 46.4-38.4 83.2-91.2 83.2zM732.8 84.8c0-16-11.2-27.2-27.2-27.2h-507.2c-17.6 0-28.8 11.2-28.8 27.2v604.8c0 16 11.2 27.2 28.8 27.2h313.6v-137.6c0-46.4 35.2-83.2 83.2-83.2h137.6v-411.2zM854.4 206.4c0-16-11.2-27.2-28.8-27.2h-20.8v361.6c0 8-3.2 14.4-8 19.2l-228.8 222.4c-6.4 4.8-11.2 8-19.2 8h-256v20.8c0 16 11.2 27.2 28.8 27.2h505.6c17.6 0 28.8-11.2 28.8-27.2v-604.8z" />
<glyph unicode="&#xe91b;" glyph-name="tick" d="M937.6 824l-52.8 33.6c-16 9.6-36.8 6.4-46.4-11.2l-134.4-211.2-201.6-321.6-72-113.6-272 172.8c-16 9.6-36.8 6.4-46.4-11.2l-33.6-52.8c-9.6-16-6.4-36.8 11.2-46.4l353.6-224c8-4.8 19.2-6.4 25.6-4.8 9.6 1.6 16 6.4 20.8 16l33.6 52.8 161.6 256 68.8 110.4 195.2 308.8c6.4 16 3.2 35.2-11.2 46.4z" />
<glyph unicode="&#xe91c;" glyph-name="email-input" horiz-adv-x="1280" d="M1280 832c0 70.4-57.6 128-128 128h-1024c-70.4 0-128-57.6-128-128v-768c0-70.4 57.6-128 128-128h1024c70.4 0 128 57.6 128 128v768zM1152 832l-512-320-512 320h1024zM1152 64h-1024v640l512-320 512 320v-640z" />
<glyph unicode="&#xe91d;" glyph-name="cross" d="M952 780.8l-107.2 107.2-332.8-332.8-332.8 332.8-107.2-107.2 332.8-332.8-332.8-332.8 107.2-107.2 332.8 332.8 332.8-332.8 107.2 107.2-332.8 332.8 332.8 332.8z" />
<glyph unicode="&#xe91e;" glyph-name="move" d="M575.488 770.528v-258.016h256v128l192.512-192.512-192.512-192.48v130.976h-256v-258.016h128.992l-192.48-192.48-192.512 192.48h128v258.016h-256v-129.984l-191.488 191.488 191.488 191.488v-126.976h256v258.016h-124.992l189.504 189.472 189.504-189.472h-126.016z" />
<glyph unicode="&#xe91f;" glyph-name="facebook-messenger" d="M512 919.040c-260.064 0-471.040-196.64-471.040-440.32 0-129.024 59.36-249.824 163.84-333.824v-180.256l176.16 92.16c42.944-12.256 86.016-16.32 131.040-16.32 260.064 0 471.040 196.576 471.040 440.32 0 241.6-210.976 438.24-471.040 438.24zM559.136 333.28l-118.816 127.040-221.184-124.96 245.76 260.096 120.864-120.8 215.040 120.8-241.664-262.176z" />
<glyph unicode="&#xe920;" glyph-name="favorite-line" d="M512 38.656l-64.704 58.88c-229.76 208.352-381.44 345.76-381.44 514.4 0 137.408 107.968 245.376 245.376 245.376 77.632 0 152.128-36.128 200.768-93.248 48.64 57.12 123.136 93.248 200.768 93.248 137.408 0 245.376-107.968 245.376-245.376 0-168.64-151.68-306.048-381.44-514.848l-64.704-58.432z" />
<glyph unicode="&#xe921;" glyph-name="favorite-solid" d="M712.768 857.344c-77.632 0-152.128-36.128-200.768-93.248-48.64 57.12-123.136 93.248-200.768 93.248-137.408 0-245.376-107.968-245.376-245.376 0-168.64 151.68-306.048 381.44-514.848l64.704-58.432 64.704 58.88c229.76 208.352 381.44 345.76 381.44 514.4 0 137.408-107.968 245.376-245.376 245.376zM516.448 163.584l-4.448-4.448-4.448 4.448c-212.352 192.288-352.448 319.424-352.448 448.384 0 89.216 66.912 156.16 156.16 156.16 68.704 0 135.616-44.16 159.264-105.28h83.424c23.2 61.12 90.112 105.28 158.816 105.28 89.216 0 156.16-66.912 156.16-156.16 0-128.928-140.096-256.096-352.448-448.384z" />
<glyph unicode="&#xe922;" glyph-name="flag" horiz-adv-x="896" d="M554.976 841.92l-23.616 118.080h-531.36v-1003.712h118.080v413.28h330.624l23.616-118.080h413.28v590.4h-330.624z" />
<glyph unicode="&#xe923;" glyph-name="folder-line" d="M382.464 722.624l91.552-91.552h404.16v-457.696h-732.352v549.248h236.64zM420.448 814.176h-274.624c-50.336 0-91.072-41.184-91.072-91.552l-0.448-549.248c0-50.336 41.184-91.552 91.552-91.552h732.352c50.336 0 91.552 41.184 91.552 91.552v457.696c0 50.336-41.216 91.552-91.552 91.552h-366.176l-91.552 91.552z" />
<glyph unicode="&#xe924;" glyph-name="folder-solid" d="M420.512 814.016h-274.496c-50.336 0-91.040-41.184-91.040-91.488l-0.448-549.024c0-50.336 41.184-91.488 91.52-91.488h732.032c50.336 0 91.488 41.184 91.488 91.488v457.504c0 50.336-41.184 91.488-91.488 91.488h-366.016l-91.488 91.488z" />
<glyph unicode="&#xe925;" glyph-name="google" d="M520.928 512.064v-153.664h254.112c-10.336-65.984-76.832-193.184-254.112-193.184-152.96 0-277.728 126.688-277.728 282.816s124.768 282.816 277.728 282.816c86.976 0 145.248-37.088 178.496-69.12l121.632 117.088c-78.048 73.152-179.2 117.248-300.128 117.248-247.616 0-448-200.384-448-448s200.384-448 448-448c258.464 0 430.144 181.824 430.144 437.664 0 29.408-3.136 51.808-7.008 74.208l-423.136 0.16z" />
<glyph unicode="&#xe926;" glyph-name="help" d="M512 874.656c-235.52 0-426.656-191.136-426.656-426.656s191.136-426.656 426.656-426.656c235.52 0 426.656 191.136 426.656 426.656s-191.136 426.656-426.656 426.656zM554.656 149.344h-85.344v85.344h85.344v-85.344zM642.976 480l-38.4-39.264c-30.72-31.136-49.92-56.736-49.92-120.736h-85.344v21.344c0 46.944 19.2 89.6 49.92 120.736l52.896 53.76c15.776 15.36 25.184 36.704 25.184 60.16 0 46.944-38.4 85.344-85.344 85.344s-85.344-38.4-85.344-85.344h-85.344c0 94.304 76.384 170.656 170.656 170.656s170.656-76.384 170.656-170.656c0-37.536-15.36-71.68-39.68-96z" />
<glyph unicode="&#xe927;" glyph-name="information-solid" d="M150.016 86.016c-96.461 93.235-156.314 223.744-156.314 368.282 0 282.778 229.222 512 512 512 144.538 0 275.046-59.853 368.128-156.16l0.154-0.154c88.934-91.955 143.718-217.446 143.718-355.686 0-282.778-229.222-512-512-512-138.24 0-263.731 54.784-355.84 143.872l0.154-0.154zM460.8 396.8v-204.8h102.4v307.2h-102.4v-102.4zM460.8 704v-102.4h102.4v102.4h-102.4z" />
<glyph unicode="&#xe928;" glyph-name="instagram" d="M512 815.328c119.712 0 133.888-0.512 180.928-2.624 43.744-1.92 67.36-9.28 83.136-15.392 20.832-8.064 35.872-17.856 51.456-33.44 15.744-15.744 25.376-30.624 33.6-51.456 6.112-15.744 13.472-39.552 15.392-83.136 2.112-47.232 2.624-61.408 2.624-180.96s-0.512-133.856-2.624-180.928c-1.92-43.744-9.28-67.36-15.392-83.136-8.064-20.832-17.856-35.872-33.408-51.456-15.744-15.744-30.624-25.376-51.456-33.6-15.744-6.112-39.552-13.472-83.136-15.392-47.264-2.112-61.408-2.624-180.928-2.624s-133.888 0.512-180.928 2.624c-43.744 1.92-67.36 9.28-83.136 15.392-20.832 8.064-35.872 17.856-51.456 33.408-15.744 15.744-25.376 30.624-33.6 51.456-6.112 15.744-13.472 39.552-15.392 83.136-2.112 47.264-2.624 61.408-2.624 180.928s0.512 133.888 2.624 180.928c1.92 43.744 9.28 67.36 15.392 83.136 8.064 20.832 17.856 35.872 33.44 51.456 15.744 15.744 30.624 25.376 51.456 33.6 15.744 6.112 39.552 13.472 83.136 15.392 47.072 2.112 61.248 2.624 180.96 2.624zM512 896c-121.632 0-136.832-0.512-184.608-2.624-47.616-2.112-80.32-9.792-108.672-20.832-29.568-11.552-54.592-26.784-79.456-51.808-25.024-24.864-40.256-49.888-51.808-79.264-11.040-28.512-18.72-61.088-20.832-108.672-2.112-47.936-2.624-63.168-2.624-184.8s0.512-136.832 2.624-184.608c2.112-47.616 9.792-80.32 20.832-108.672 11.552-29.568 26.784-54.592 51.808-79.456 24.864-24.832 49.888-40.256 79.264-51.616 28.512-11.040 61.088-18.72 108.672-20.832 47.776-2.112 63.008-2.624 184.608-2.624s136.832 0.512 184.608 2.624c47.616 2.112 80.32 9.792 108.672 20.832 29.408 11.36 54.432 26.784 79.264 51.616s40.256 49.856 51.616 79.264c11.040 28.512 18.72 61.088 20.832 108.672 2.112 47.776 2.624 63.008 2.624 184.608s-0.512 136.832-2.624 184.608c-2.112 47.616-9.792 80.32-20.832 108.672-11.040 29.76-26.24 54.784-51.264 79.616-24.832 24.832-49.856 40.256-79.264 51.616-28.512 11.040-61.088 18.72-108.672 20.832-47.936 2.272-63.168 2.784-184.8 2.784v0zM512 678.112c-127.040 0-230.112-103.072-230.112-230.112s103.072-230.112 230.112-230.112 230.112 103.072 230.112 230.112c0 127.040-103.072 230.112-230.112 230.112zM512 298.72c-82.432 0-149.28 66.848-149.28 149.28s66.848 149.28 149.28 149.28c82.432 0 149.28-66.848 149.28-149.28s-66.848-149.28-149.28-149.28zM804.928 687.232c0-29.664-24.064-53.728-53.728-53.728s-53.728 24.064-53.728 53.728c0 29.664 24.064 53.728 53.728 53.728s53.728-24.064 53.728-53.728z" />
<glyph unicode="&#xe929;" glyph-name="minus-thin" d="M120 496h784c26.496 0 48-21.504 48-48s-21.504-48-48-48h-784c-26.496 0-48 21.504-48 48s21.504 48 48 48z" />
<glyph unicode="&#xe92a;" glyph-name="mouse" d="M470.016 913.984v-338.016h-300c0 174.016 132 318.016 300 338.016zM170.016 320v170.016h684v-170.016c0-188-154.016-342.016-342.016-342.016s-342.016 154.016-342.016 342.016zM554.016 913.984c168-20 300-164 300-338.016h-300v338.016z" />
<glyph unicode="&#xe92b;" glyph-name="offeo" horiz-adv-x="1088" d="M461.696 192.864h-426.368c-12.992 0-23.488 9.984-23.488 22.336v134.048c0 12.352 10.496 22.336 23.488 22.336h426.368c12.992 0 23.488-9.984 23.488-22.336v-133.888c0.16-12.352-10.496-22.496-23.488-22.496zM1040.544 781.248h-426.368c-12.992 0-23.488 9.984-23.488 22.336v133.888c0 12.352 10.496 22.336 23.488 22.336h426.368c12.992 0 23.52-9.984 23.52-22.336v-133.888c0-12.352-10.496-22.336-23.52-22.336zM461.696-24.224h-426.368c-12.992 0-23.488 9.984-23.488 22.336v134.048c0 12.352 10.496 22.336 23.488 22.336h426.368c12.992 0 23.488-9.984 23.488-22.336v-133.92c0.16-12.512-10.496-22.496-23.488-22.496zM248.512 487.456c-137.024 0-248.512 106.016-248.512 236.256s111.52 236.256 248.512 236.256c137.024 0 248.512-106.016 248.512-236.256s-111.328-236.256-248.512-236.256zM615.872 486.656c-2.496 0-5.184 0.48-7.68 1.44-7.328 3.008-12.16 9.824-12.16 17.44v216.768c0 10.784 9.344 19.648 20.672 19.648h230.016c8.512 0 16-4.768 19.168-12.192s1.344-15.84-4.672-21.408l-231.328-216.16c-4-3.648-8.992-5.536-14.016-5.536zM832.384 408.544c-137.024 0-248.512-106.016-248.512-236.288s111.488-236.256 248.512-236.256c136.992 0 248.512 105.856 248.512 236.256s-111.52 236.288-248.512 236.288zM968.224 160.544c-0.832-0.8-1.984-1.6-3.008-2.208l-188-106.656c-3.328-2.368-7.328-3.648-11.488-3.648-2.496 0-4.992 0.48-7.328 1.408-7.168 2.848-11.84 9.504-11.68 16.96l2.016 213.76c0 7.136 4.512 13.472 11.488 16.16 5.984 2.368 12.832 1.408 18.016-2.048l187.168-105.696c1.152-0.64 2.176-1.408 3.008-2.208 3.68-3.488 5.664-7.904 5.664-12.832-0.352-5.056-2.336-9.504-5.824-12.992z" />
<glyph unicode="&#xe92c;" glyph-name="folder-line-2" d="M896 736h-384l-96 96h-288c-52.8 0-95.52-43.2-95.52-96l-0.48-576c0-52.8 43.2-96 96-96h768c52.8 0 96 43.2 96 96v480c0 52.8-43.2 96-96 96zM896 160h-768v480h768v-480z" />
<glyph unicode="&#xe92d;" glyph-name="paypal" d="M407.52 412.704h82.752c179.776 0 281.76 84.64 314.24 258.656 1.056 5.728 1.984 11.264 2.784 16.8 1.792 11.776 2.688 22.368 3.104 32.544 0.288 6.976 0.512 11.104 0.448 14.976-0.064 18.624-3.712 37.056-10.784 54.176-6.432 15.424-16.16 30.624-30.592 47.872-42.56 50.592-116.672 79.616-205.216 79.616h-281.984c-9.6 0-18.912-3.616-26.208-10.144s-12.16-15.552-13.664-25.472l-50.88-342.656-63.296-426.848c-0.544-3.616-0.32-7.296 0.64-10.816s2.624-6.784 4.896-9.568c2.272-2.784 5.088-4.992 8.288-6.528s6.624-2.336 10.144-2.336h138.272l42.336 262.976c2.752 18.624 11.776 35.616 25.504 47.872s31.136 18.944 49.184 18.88zM861.568 651.904c-39.52-196.64-167.456-300.992-371.36-300.992h-82.688c-3.968 0-7.808-1.472-10.784-4.16s-4.992-6.432-5.568-10.528l-55.104-357.536h144.992c8.416 0 16.544 3.136 22.944 8.832s10.624 13.632 11.936 22.304l1.44 7.808 27.68 183.264 1.792 10.112c1.312 8.672 5.536 16.608 11.936 22.304s14.528 8.832 22.944 8.832h21.952c142.176 0 253.44 60.384 285.952 234.976 13.376 71.968 6.592 132.16-28.032 174.816v0z" />
<glyph unicode="&#xe92e;" glyph-name="pinterest" d="M512 891.584c-244.992 0-443.616-198.592-443.616-443.616 0-188 116.992-348.384 282.016-412.992-3.808 35.008-7.392 88.992 1.6 127.2 8 34.592 52 220.384 52 220.384s-13.184 26.592-13.184 65.792c0 61.6 35.808 107.808 80.192 107.808 37.792 0 56.192-28.384 56.192-62.4 0-38.016-24.192-95.008-36.8-147.616-10.592-44.192 22.016-80.192 65.6-80.192 78.784 0 139.392 83.2 139.392 203.2 0 106.208-76.384 180.416-185.184 180.416-126.208 0-200.192-94.592-200.192-192.608 0-38.208 14.592-79.008 32.992-101.216 3.616-4.384 4.192-8.192 3.008-12.8-3.392-14.016-10.816-44.192-12.384-50.4-2.016-8.192-6.4-9.792-14.816-6.016-55.392 25.792-90.016 106.784-90.016 171.808 0 140 101.6 268.384 292.992 268.384 153.792 0 273.408-109.6 273.408-256.192 0-152.8-96.384-276-230.208-276-44.992 0-87.2 23.392-101.6 51.008 0 0-22.208-84.608-27.616-105.408-10.016-38.592-36.992-86.784-55.2-116.192 41.6-12.8 85.6-19.808 131.392-19.808 244.992 0 443.616 198.592 443.616 443.616 0 245.184-198.592 443.808-443.616 443.808z" />
<glyph unicode="&#xe92f;" glyph-name="show, affiliate-live-preview" d="M512 582.4c-73.6 0-129.6-59.2-129.6-134.4s59.2-134.4 129.6-134.4c73.6 0 134.4 59.2 134.4 134.4 0 73.6-60.8 134.4-134.4 134.4zM512 729.6c-232 0-416-246.4-422.4-257.6l-17.6-24 17.6-24c6.4-11.2 190.4-257.6 422.4-257.6s416 246.4 422.4 257.6l17.6 24-17.6 24c-6.4 11.2-190.4 257.6-422.4 257.6zM512 198.4c-137.6 0-246.4 112-246.4 249.6s108.8 249.6 246.4 249.6 246.4-112 246.4-249.6-108.8-249.6-246.4-249.6z" />
<glyph unicode="&#xe930;" glyph-name="plus" d="M768 384h-192v-192h-128v192h-192v128h192v192h128v-192h192v-128z" />
<glyph unicode="&#xe931;" glyph-name="plus-thin" d="M903.040 496.96h-342.080v342.080c-1.536 25.824-22.816 46.176-48.864 46.176s-47.36-20.352-48.864-46.016v-342.208h-342.24c-25.824-1.536-46.176-22.816-46.176-48.864s20.352-47.36 46.016-48.864h342.208v-342.24c1.536-25.824 22.816-46.176 48.864-46.176s47.36 20.352 48.864 46.016v342.208h342.24c0.832-0.064 1.824-0.096 2.784-0.096 27.040 0 48.96 21.92 48.96 48.96s-21.92 48.96-48.96 48.96c-0.992 0-1.952-0.032-2.944-0.096h0.128z" />
<glyph unicode="&#xe932;" glyph-name="redo" d="M786.016 508l152 154.016v-384h-384l156 154.016c-60 50.016-136 80-220 80-152 0-280-98.016-324-234.016l-100 32c58.016 178.016 226.016 308 424 308 114.016 0 218.016-42.016 296-110.016z" />
<glyph unicode="&#xe933;" glyph-name="replay" d="M512 713.248v176.832l-221.024-221.024 221.024-221.024v176.832c146.336 0 265.248-118.912 265.248-265.248s-118.912-265.248-265.248-265.248-265.248 118.912-265.248 265.248h-88.416c0-195.392 158.272-353.664 353.664-353.664s353.664 158.272 353.664 353.664c0 195.392-158.272 353.664-353.664 353.664z" />
<glyph unicode="&#xe934;" glyph-name="scene" d="M954.656 270.944v531.2c0 48.704-39.84 88.544-88.544 88.544h-531.2c-48.704 0-88.544-39.84-88.544-88.544v-531.2c0-48.704 39.84-88.544 88.544-88.544h531.2c48.704 0 88.544 39.84 88.544 88.544zM467.744 448l89.856-119.968 131.456 164.224 177.056-221.344h-531.2l132.8 177.056zM69.344 713.6v-619.744c0-48.704 39.84-88.544 88.544-88.544h619.744v88.544h-619.744v619.744h-88.544z" />
<glyph unicode="&#xe935;" glyph-name="share" d="M798.016 292c-36.704 0-69.824-15.232-93.44-39.68l-350.176 175.104c1.056 6.688 1.632 13.568 1.632 20.576s-0.576 13.888-1.632 20.576l350.176 175.104c23.648-24.448 56.768-39.68 93.44-39.68 71.808 0 130.016 58.208 130.016 130.016s-58.208 130.016-130.016 130.016-130.016-58.208-130.016-130.016c0-7.008 0.576-13.888 1.632-20.576l-350.176-175.104c-23.648 24.448-56.768 39.68-93.44 39.68-71.808 0-130.016-58.208-130.016-130.016s58.208-130.016 130.016-130.016c36.704 0 69.824 15.232 93.44 39.68l350.176-175.104c-1.056-6.688-1.632-13.568-1.632-20.576 0-71.808 58.208-130.016 130.016-130.016s130.016 58.208 130.016 130.016c0 71.808-58.208 130.016-130.016 130.016z" />
<glyph unicode="&#xe936;" glyph-name="shift" d="M600 800c0-48.608-39.392-88-88-88s-88 39.392-88 88c0 48.608 39.392 88 88 88s88-39.392 88-88zM600 448c0-48.608-39.392-88-88-88s-88 39.392-88 88c0 48.608 39.392 88 88 88s88-39.392 88-88zM600 96c0-48.608-39.392-88-88-88s-88 39.392-88 88c0 48.608 39.392 88 88 88s88-39.392 88-88z" />
<glyph unicode="&#xe937;" glyph-name="star, star-full" d="M1024 562.944l-353.792 51.424-158.208 320.576-158.208-320.576-353.792-51.424 256-249.536-60.448-352.352 316.448 166.368 316.448-166.368-60.448 352.352 256 249.536z" />
<glyph unicode="&#xe938;" glyph-name="status" d="M512 910.112l-485.76-351.84 183.808-572.384h603.904l183.808 572.384-485.76 351.84zM512 227.456c-94.528 0-170.656 76.16-170.656 170.656s76.16 170.656 170.656 170.656 170.656-76.16 170.656-170.656-76.16-170.656-170.656-170.656z" />
<glyph unicode="&#xe939;" glyph-name="subtract" d="M768 512v-128h-512v128h512z" />
<glyph unicode="&#xe93a;" glyph-name="thumbs-up" horiz-adv-x="1152" d="M12.64-64h202.272v606.816h-202.272v-606.816zM1125.12 492.256c0 55.616-45.504 101.12-101.12 101.12h-319.072l48.032 231.104 1.504 16.192c0 20.736-8.608 39.936-22.24 53.6l-53.6 53.088-332.736-333.248c-18.72-18.208-29.824-43.488-29.824-71.296v-505.664c0-55.616 45.504-101.152 101.152-101.152h455.104c41.984 0 77.888 25.28 93.056 61.696l152.704 356.512c4.544 11.616 7.072 23.776 7.072 36.928v101.152z" />
<glyph unicode="&#xe93b;" glyph-name="tick-circle, check_circle" d="M512 896c-247.296 0-448-200.704-448-448s200.704-448 448-448c247.296 0 448 200.704 448 448s-200.704 448-448 448zM422.4 224l-224 224 63.168 63.168 160.832-160.384 340.032 340.032 63.168-63.616-403.2-403.2z" />
<glyph unicode="&#xe93c;" glyph-name="plus-circle" d="M512 888c-241.6 0-440-198.4-440-440s198.4-440 440-440 440 198.4 440 440-198.4 440-440 440zM715.2 388.8h-147.2v-147.2h-121.6v147.2h-147.2v123.2h147.2v147.2h121.6v-147.2h147.2v-123.2z" />
<glyph unicode="&#xe93d;" glyph-name="plus-circle-thin" d="M918.4 620.8c-22.4 51.2-54.4 99.2-96 140.8-60.8 60.8-134.4 100.8-219.2 118.4-27.2 8-54.4 9.6-81.6 9.6h-3.2c-4.8 0-9.6 0-14.4 0 0 0-3.2 0 0 3.2-46.4 0-91.2-9.6-134.4-24-59.2-22.4-110.4-54.4-156.8-96-54.4-52.8-91.2-112-115.2-180.8-14.4-41.6-22.4-83.2-24-124.8-4.8-76.8 12.8-150.4 46.4-219.2 56-108.8 142.4-182.4 257.6-220.8 36.8-14.4 73.6-19.2 113.6-22.4 3.2 0 8 0 12.8 0h3.2c3.2 0 8 0 12.8 0h3.2c44.8 3.2 86.4 9.6 128 22.4 64 19.2 120 54.4 169.6 100.8 60.8 56 100.8 128 123.2 208 8 32 12.8 60.8 12.8 92.8v3.2c0 9.6 0 19.2 0 28.8 0 4.8 0 9.6 0 14.4-8 49.6-19.2 99.2-38.4 145.6zM732.8 424c-65.6 0-129.6 0-196.8 0 0-65.6 0-129.6 0-196.8-17.6 0-32 0-49.6 0 0 65.6 0 129.6 0 196.8-65.6 0-129.6 0-196.8 0 0 17.6 0 32 0 49.6 65.6 0 129.6 0 196.8 0 0 65.6 0 129.6 0 196.8 17.6 0 32 0 49.6 0 0-65.6 0-129.6 0-196.8 65.6 0 129.6 0 196.8 0 0-17.6 0-33.6 0-49.6z" />
<glyph unicode="&#xe93e;" glyph-name="trash-line" d="M216.608 103.392c0-54.144 44.32-98.464 98.464-98.464h393.856c54.144 0 98.464 44.32 98.464 98.464v590.784h-590.784v-590.784zM315.072 595.68h393.856v-492.32h-393.856v492.32zM684.32 841.856l-49.216 49.216h-246.144l-49.216-49.216h-172.32v-98.464h689.216v98.464h-172.32z" />
<glyph unicode="&#xe93f;" glyph-name="trash-solid" d="M228.192 104.64c0-53.952 42.56-98.112 94.592-98.112h378.4c52.032 0 94.592 44.128 94.592 98.112v588.608h-567.584v-588.608zM843.104 840.416h-165.536l-47.296 49.056h-236.48l-47.296-49.056h-165.536v-98.112h662.176v98.112z" />
<glyph unicode="&#xe940;" glyph-name="triangle" d="M131.2 448l761.6 440v-880l-761.6 440z" />
<glyph unicode="&#xe941;" glyph-name="twitter" d="M676.8 808c1.6 0 4.8 0 6.4 0 3.2-1.6 6.4-1.6 9.6-1.6 44.8-1.6 83.2-20.8 116.8-49.6 3.2-3.2 11.2-4.8 16-4.8 20.8 6.4 41.6 12.8 62.4 19.2 14.4 4.8 27.2 12.8 40 19.2 1.6 0 1.6-1.6 3.2-1.6-11.2-17.6-19.2-35.2-32-51.2s-28.8-28.8-44.8-43.2c33.6 3.2 65.6 12.8 99.2 25.6-3.2-4.8-4.8-8-8-11.2-20.8-28.8-44.8-52.8-73.6-73.6-6.4-4.8-8-9.6-8-16 1.6-51.2-4.8-102.4-19.2-152-72-248-288-400-552-376-62.4 6.4-123.2 22.4-179.2 51.2-14.4 6.4-27.2 14.4-41.6 22.4 48 0 92.8 3.2 137.6 16s86.4 33.6 124.8 64c-91.2 14.4-156.8 62.4-168 124.8 25.6-1.6 51.2-4.8 76.8 6.4-41.6 11.2-75.2 32-102.4 65.6-25.6 32-40 70.4-40 112 14.4-4.8 27.2-9.6 40-14.4 12.8-3.2 25.6-8 41.6-4.8-40 28.8-65.6 65.6-75.2 110.4-11.2 43.2-4.8 86.4 17.6 128 100.8-115.2 225.6-179.2 377.6-188.8-1.6 14.4-3.2 24-3.2 35.2s0 22.4 1.6 33.6c11.2 76.8 70.4 137.6 147.2 150.4 9.6 1.6 19.2 3.2 28.8 4.8z" />
<glyph unicode="&#xe942;" glyph-name="undo" d="M534.016 617.984c198.016 0 364-130.016 424-308l-100-32c-44 136-172 234.016-324 234.016-84 0-160-30.016-220-80l156-154.016h-384v384l152-154.016c78.016 68 182.016 110.016 296 110.016z" />
<glyph unicode="&#xe943;" glyph-name="user-line" d="M341.344 618.656c0-93.856 76.8-170.656 170.656-170.656s170.656 76.8 170.656 170.656c0 93.856-76.8 170.656-170.656 170.656s-170.656-76.8-170.656-170.656zM512 533.344c46.752 0 85.344 38.592 85.344 85.344s-38.592 85.344-85.344 85.344c-46.752 0-85.344-38.592-85.344-85.344s38.592-85.344 85.344-85.344zM512 362.656c-235.296 0-384-97.056-384-298.656h768c0 201.6-148.704 298.656-384 298.656zM228.352 149.344c34.272 84.928 127.616 128 283.648 128s249.376-43.072 283.648-128h-567.328z" />
<glyph unicode="&#xe944;" glyph-name="warning" d="M696.736 893.728h-369.44l-260.992-260.992v-369.44l260.992-260.992h369.44l260.992 260.992v369.44l-260.992 260.992zM512 185.536c-35.648 0-64.384 28.736-64.384 64.384s28.736 64.384 64.384 64.384c35.648 0 64.384-28.736 64.384-64.384s-28.736-64.384-64.384-64.384zM561.536 398.464h-99.040v297.152h99.040v-297.152z" />
<glyph unicode="&#xe945;" glyph-name="whatsapp" d="M512 919.040c-259.744 0-471.040-211.328-471.040-471.040 0-81.088 20.96-160.864 60.672-231.232l-59.936-213.824c-1.952-7.040-0.064-14.56 5.024-19.776 3.904-4.032 9.248-6.24 14.72-6.24 1.632 0 3.296 0.192 4.928 0.608l223.136 55.264c68.128-36.576 144.864-55.872 222.496-55.872 259.712 0 471.040 211.296 471.040 471.040s-211.328 471.040-471.040 471.040zM748.96 281.792c-10.080-27.904-58.4-53.344-81.632-56.768-20.864-3.040-47.232-4.352-76.192 4.736-17.568 5.536-40.096 12.864-68.928 25.184-121.312 51.744-200.512 172.352-206.592 180.32s-49.376 64.736-49.376 123.488c0 58.752 31.232 87.648 42.336 99.616s24.192 14.944 32.256 14.944c8.064 0 16.128-0.096 23.2-0.416 7.424-0.384 17.408 2.816 27.232-20.512 10.080-23.936 34.272-82.688 37.248-88.672 3.040-5.984 5.024-12.96 1.024-20.928s-6.016-12.928-12.096-19.936-12.704-15.552-18.144-20.928c-6.048-5.952-12.352-12.416-5.312-24.384s31.328-51.040 67.264-82.72c46.176-40.672 85.152-53.28 97.248-59.264s19.136-4.96 26.208 2.976c7.040 8 30.24 34.88 38.272 46.816s16.128 9.984 27.232 5.984c11.104-3.968 70.56-32.864 82.624-38.816s20.16-8.96 23.2-13.952c3.040-4.96 3.040-28.864-7.040-56.736z" />
<glyph unicode="&#xe946;" glyph-name="youtube" d="M803.2 142.4c-195.2 0-392 0-587.2 0-4.8 1.6-9.6 3.2-14.4 3.2-24 1.6-44.8 8-65.6 20.8-44.8 30.4-62.4 73.6-64 124.8-1.6 40 0 80 0 118.4 0 72 0 144 1.6 216 0 30.4 12.8 59.2 35.2 81.6 32 32 70.4 44.8 115.2 44.8 195.2 0 388.8 0 584 0 25.6 0 49.6-4.8 72-17.6 49.6-28.8 70.4-75.2 72-131.2 1.6-105.6 0-211.2 0-316.8 0-72-40-120-110.4-137.6-12.8-1.6-25.6-3.2-38.4-6.4zM688 459.2c-97.6 57.6-193.6 112-291.2 168 0-113.6 0-224 0-337.6 99.2 57.6 193.6 113.6 291.2 169.6z" />
<glyph unicode="&#xe947;" glyph-name="close-solid, close-circle" d="M512 21.344c235.648 0 426.656 191.040 426.656 426.656s-191.040 426.656-426.656 426.656c-235.648 0-426.656-191.040-426.656-426.656s191.040-426.656 426.656-426.656zM609.824 606.176c16.672 16.672 43.68 16.672 60.352 0s16.672-43.68 0-60.352l-97.824-97.824 97.824-97.824c16.672-16.672 16.672-43.68 0-60.352s-43.68-16.672-60.352 0l-97.824 97.824-97.824-97.824c-16.672-16.672-43.68-16.672-60.352 0s-16.672 43.68 0 60.352l97.824 97.824-97.824 97.824c-16.672 16.672-16.672 43.68 0 60.352s43.68 16.672 60.352 0l97.824-97.824 97.824 97.824z" />
<glyph unicode="&#xe948;" glyph-name="hide" d="M676.8 688l41.6 41.6 38.4-38.4-508.8-518.4-38.4 38.4 46.4 46.4c-96 70.4-160 152-163.2 161.6v0l-20.8 28.8 17.6 24c6.4 11.2 190.4 257.6 422.4 257.6 59.2 0 116.8-17.6 164.8-41.6zM646.4 656c-38.4 24-84.8 38.4-134.4 38.4-137.6 0-246.4-112-246.4-246.4 0-49.6 14.4-94.4 38.4-134.4l84.8 84.8c-6.4 14.4-11.2 32-11.2 49.6 0 73.6 59.2 134.4 134.4 134.4 17.6 0 32-3.2 49.6-11.2l84.8 84.8zM934.4 472v0l17.6-24-17.6-24c-14.4-17.6-193.6-257.6-422.4-257.6-64 0-123.2 17.6-179.2 46.4l35.2 35.2c38.4-28.8 91.2-46.4 144-46.4 137.6 0 246.4 112 246.4 246.4 0 52.8-17.6 102.4-46.4 144l49.6 49.6c99.2-70.4 166.4-161.6 172.8-169.6zM646.4 448c0 20.8-6.4 41.6-14.4 64l-179.2-180.8c17.6-11.2 38.4-14.4 59.2-14.4 73.6-3.2 134.4 57.6 134.4 131.2z" />
<glyph unicode="&#xe949;" glyph-name="lock" d="M644 618v86q0 54-39 93t-93 39-93-39-39-93v-86h264zM512 234q34 0 60 26t26 60-26 60-60 26-60-26-26-60 26-60 60-26zM768 618q34 0 60-25t26-59v-428q0-34-26-59t-60-25h-512q-34 0-60 25t-26 59v428q0 34 26 59t60 25h42v86q0 88 63 151t151 63 151-63 63-151v-86h42z" />
<glyph unicode="&#xe94a;" glyph-name="affiliate-animator" horiz-adv-x="672" d="M291.104 892.032v-188.064h71.648v188.064h-71.648zM555.232 448.704c0-51.936-42.112-94.016-94.048-94.016s-94.048 42.112-94.048 94.016c0 51.936 42.112 94.048 94.048 94.048s94.048-42.112 94.048-94.048zM8.96 533.792h322.4v-89.568h-322.4v89.568zM331.36 408.416h-161.184v-89.568h161.184v89.568zM367.168 184.544v-188.064h-71.648v188.064h71.648zM50.656 99.392l132.992 132.992-50.656 50.656-132.992-132.992 50.656-50.656zM525.312 283.040l132.992-132.992-50.656-50.656-132.992 132.992 50.656 50.656zM474.656 656.096l132.992 132.992 50.656-50.656-132.992-132.992-50.656 50.656zM0 738.432l132.992-132.992 50.656 50.656-132.992 132.992-50.656-50.656z" />
<glyph unicode="&#xe94b;" glyph-name="checkmark" d="M0 396.8l102.4 102.4 256-256 563.2 563.2 102.4-102.4-665.6-665.6z" />
<glyph unicode="&#xe94c;" glyph-name="cross-line" d="M833.344 769.344c-26.656 26.656-69.888 26.656-96.544 0l-224.8-224.8-224.8 224.8c-26.656 26.656-69.888 26.656-96.544 0s-26.656-69.888 0-96.544l224.8-224.8-224.8-224.8c-26.656-26.656-26.656-69.888 0-96.544s69.888-26.656 96.544 0l224.8 224.8 224.8-224.8c26.656-26.656 69.888-26.656 96.544 0s26.656 69.888 0 96.544l-224.8 224.8 224.8 224.8c26.656 26.656 26.656 69.888 0 96.544z" />
<glyph unicode="&#xe94d;" glyph-name="folder-plus" d="M981.333 149.333v469.333c0 35.328-14.379 67.413-37.504 90.496s-55.168 37.504-90.496 37.504h-361.173l-72.661 109.013c-7.765 11.52-20.736 18.987-35.499 18.987h-213.333c-35.328 0-67.413-14.379-90.496-37.504s-37.504-55.168-37.504-90.496v-597.333c0-35.328 14.379-67.413 37.504-90.496s55.168-37.504 90.496-37.504h682.667c35.328 0 67.413 14.379 90.496 37.504s37.504 55.168 37.504 90.496zM896 149.333c0-11.776-4.736-22.4-12.501-30.165s-18.389-12.501-30.165-12.501h-682.667c-11.776 0-22.4 4.736-30.165 12.501s-12.501 18.389-12.501 30.165v597.333c0 11.776 4.736 22.4 12.501 30.165s18.389 12.501 30.165 12.501h190.507l72.661-109.013c8.192-12.245 21.589-18.901 35.499-18.987h384c11.776 0 22.4-4.736 30.165-12.501s12.501-18.389 12.501-30.165zM384 320h85.333v-85.333c0-23.552 19.115-42.667 42.667-42.667s42.667 19.115 42.667 42.667v85.333h85.333c23.552 0 42.667 19.115 42.667 42.667s-19.115 42.667-42.667 42.667h-85.333v85.333c0 23.552-19.115 42.667-42.667 42.667s-42.667-19.115-42.667-42.667v-85.333h-85.333c-23.552 0-42.667-19.115-42.667-42.667s19.115-42.667 42.667-42.667z" />
<glyph unicode="&#xe94e;" glyph-name="menu" d="M0 806.4h1024v-102.4h-1024v102.4zM0 499.2h1024v-102.4h-1024v102.4zM0 192h1024v-102.4h-1024v102.4z" />
<glyph unicode="&#xe94f;" glyph-name="affiliate-cloud, cloud" d="M825.6 531.616c-29.024 147.2-158.304 257.696-313.6 257.696-123.296 0-230.4-69.984-283.744-172.384-128.416-13.664-228.256-122.464-228.256-254.304 0-141.216 114.784-256 256-256h554.656c117.76 0 213.344 95.584 213.344 213.344 0 112.64-87.456 203.936-198.4 211.616z" />
<glyph unicode="&#xe950;" glyph-name="play" d="M192 832l640-384-640-384z" />
<glyph unicode="&#xe951;" glyph-name="affiliate-creative-control" d="M663.040 723.616l-75.52-75.104-75.52 75.104-75.52-75.104-75.52 75.104 151.040 151.040 151.040-151.040zM787.616 296.96l-75.104 75.52 75.104 75.52-75.104 75.52 75.104 75.52 151.040-151.040-151.040-151.040zM360.96 172.384l75.52 75.104 75.52-75.104 75.52 75.104 75.52-75.104-151.040-151.040-151.040 151.040zM236.384 599.040l75.104-75.52-75.104-75.52 75.104-75.52-75.104-75.52-151.040 151.040 151.040 151.040zM512 320c70.688 0 128 57.312 128 128s-57.312 128-128 128c-70.688 0-128-57.312-128-128s57.312-128 128-128z" />
<glyph unicode="&#xe952;" glyph-name="affiliate-design" d="M960 896h-896v-194.368h896v194.368zM447.936 638.624v-638.624h512v638.624h-512zM64 638.624v-635.072h318.592v635.072h-318.592z" />
<glyph unicode="&#xe953;" glyph-name="affiliate-ease, smile" d="M661.344 490.656c35.36 0 64 28.672 64 64s-28.64 64-64 64-64-28.64-64-64c0-35.328 28.64-64 64-64zM362.656 490.656c35.36 0 64 28.672 64 64s-28.64 64-64 64-64-28.64-64-64c0-35.328 28.64-64 64-64zM511.584 874.656c-235.52 0-426.24-191.136-426.24-426.656s190.72-426.656 426.24-426.656c235.936 0 427.104 191.136 427.104 426.656s-191.136 426.656-427.104 426.656zM512 106.656c-188.576 0-341.344 152.736-341.344 341.344s152.736 341.344 341.344 341.344c188.576 0 341.344-152.736 341.344-341.344s-152.736-341.344-341.344-341.344zM298.656 362.656c33.28-99.84 116.064-170.656 213.344-170.656s180.064 70.816 213.344 170.656h-426.656z" />
<glyph unicode="&#xe954;" glyph-name="affiliate-font" d="M338.304 820.224v-148.896h248.128v-595.52h148.896v595.52h248.128v148.896h-645.152zM40.544 423.2h148.896v-347.392h148.896v347.392h148.896v148.896h-446.656v-148.896z" />
<glyph unicode="&#xe955;" glyph-name="affiliate-graphic" d="M488.288 897.568l-261.024-404.64h522.016l-261.024 404.64zM749.28-1.568c117.952 0 213.568 90.592 213.568 202.304s-95.616 202.304-213.568 202.304c-117.952 0-213.568-90.592-213.568-202.304s95.616-202.304 213.568-202.304zM61.152 380.576h379.648v-359.68h-379.648v359.68z" />
<glyph unicode="&#xe956;" glyph-name="affiliate-image" d="M133.344 675.2h-75.744v-189.344h0.384l-0.384-340.8c0-41.664 34.080-75.744 75.744-75.744h681.6v75.744h-681.6v530.144zM890.656 750.944h-302.944l-75.744 75.744h-227.2c-41.664 0-75.36-34.080-75.36-75.744l-0.384-454.4c0-41.664 34.080-75.744 75.744-75.744h605.856c41.664 0 75.744 34.080 75.744 75.744v378.656c0 41.664-34.080 75.744-75.744 75.744zM322.656 334.4l170.4 227.2 132.544-170.784 94.656 113.984 132.544-170.4h-530.144z" />
<glyph unicode="&#xe957;" glyph-name="affiliate-multi-scene" d="M42.656 746.656h85.344v-597.344h-85.344v597.344zM213.344 746.656h85.344v-597.344h-85.344v597.344zM938.656 746.656h-512c-23.456 0-42.656-19.2-42.656-42.656v-512c0-23.456 19.2-42.656 42.656-42.656h512c23.456 0 42.656 19.2 42.656 42.656v512c0 23.456-19.2 42.656-42.656 42.656zM469.344 234.656l106.656 134.4 76.384-91.744 106.656 137.376 136.96-180.064h-426.656z" />
<glyph unicode="&#xe958;" glyph-name="affiliate-music" d="M960 896h-716.8v-716.8h716.8v716.8zM780.8 672h-134.4v-246.4c0-61.824-50.176-112-112-112s-112 50.176-112 112c0 61.824 50.176 112 112 112 25.536 0 48.384-8.512 67.2-22.848v246.848h179.2v-89.6zM153.6 716.8h-89.6v-716.8h716.8v89.6h-627.2v627.2z" />
<glyph unicode="&#xe959;" glyph-name="affiliate-support, bubble-speech" d="M853.344 874.656h-682.656c-46.944 0-85.344-38.4-85.344-85.344v-768l170.656 170.656h597.344c46.944 0 85.344 38.4 85.344 85.344v512c0 46.944-38.4 85.344-85.344 85.344z" />
<glyph unicode="&#xe95a;" glyph-name="facebook-logo" horiz-adv-x="623" d="M434.347 787.456c-20.092 0-40.184-24.31-40.184-57.487v-112.804h198.689v-163.698h-198.689v-488.818h-189.758v488.818h-169.666v163.698h169.666v95.109c0 137.134 98.228 247.726 229.942 247.726h158.504v-172.544h-158.504z" />
<glyph unicode="&#xe95b;" glyph-name="google-plus-logo" d="M317.017 960h260.472v-4.504c0-29.261-52.105-33.791-88.343-40.534-11.311 0-36.238-2.239-43.019-6.742 65.667-33.792 77.005-90.075 77.005-171.142 0-94.578-36.238-144.12-77.005-177.884-22.648-22.519-43.019-38.269-43.019-60.788s27.152-45.037 56.581-72.060c49.827-42.799 117.799-101.322 117.799-200.403 0-103.587-45.297-177.887-131.362-218.443-67.945-33.768-140.421-38.274-169.877-38.274-4.503 0-6.781 2.265-9.033 2.265 0 0-2.278-2.265-4.53-2.265-43.046 0-262.723 11.276-262.723 209.438 0 193.637 237.797 209.386 310.272 209.386h2.278c-40.767 56.31-33.986 112.594-33.986 112.594-2.278 0-9.059 0-15.841 0-27.205 0-79.257 4.503-124.554 33.765-56.634 33.791-83.813 94.578-83.813 180.15 0 236.433 260.445 245.441 262.697 245.441zM307.74 336.27c-4.53 0-11.337 0-18.145 0-49.827-2.265-95.124-22.516-129.084-51.778-31.681-29.286-49.827-67.554-47.549-105.821 6.781-78.83 90.594-123.868 194.777-117.097 101.879 6.74 172.102 65.289 165.321 144.119-4.53 76.535-67.945 130.578-165.321 130.578zM267.056 890.191c-6.808 0-13.589 0-22.675-2.265-29.43-8.981-52.079-33.765-65.641-69.795-11.337-36.030-13.616-74.299-2.278-119.336 20.37-76.564 77.005-132.847 133.613-132.847 6.781 0 13.589 0 20.37 2.238 63.416 18.015 101.932 110.329 74.754 200.404-27.178 94.578-70.224 121.601-138.143 121.601zM1014.374 572.696v-105.825h-169.851v-168.905h-106.436v168.905h-169.851v105.825h169.851v168.877h106.436v-168.877h169.851z" />
<glyph unicode="&#xe95c;" glyph-name="instagram1" d="M1020.702 657.762c-0.572 42.996-8.636 85.564-23.825 125.8-13.171 33.939-33.293 64.762-59.072 90.499s-56.653 45.823-90.65 58.973c-39.787 14.91-81.818 22.972-124.305 23.843-54.703 2.441-72.047 3.122-210.906 3.122-138.863 0-156.66 0-210.965-3.122-42.468-0.877-84.48-8.939-124.247-23.843-34.001-13.141-64.88-33.224-90.662-58.962s-45.897-56.566-59.060-90.511c-14.965-39.689-23.023-81.64-23.826-124.041-2.445-54.668-3.184-71.983-3.184-210.612 0-138.633 0-156.343 3.184-210.615 0.853-42.462 8.871-84.356 23.826-124.151 13.185-33.937 33.316-64.751 59.106-90.479s56.672-45.798 90.673-58.94c39.659-15.509 81.677-24.145 124.247-25.545 54.76-2.441 72.103-3.179 210.964-3.179 138.863 0 156.659 0 210.965 3.179 42.483 0.836 84.518 8.879 124.301 23.787 33.988 13.167 64.853 33.259 90.633 58.991 25.779 25.737 45.905 56.55 59.089 90.483 14.959 39.735 22.976 81.634 23.829 124.151 2.445 54.613 3.183 71.927 3.183 210.615-0.115 138.629-0.115 156.227-3.298 210.555zM511.603 186.748c-145.231 0-262.882 117.457-262.882 262.443 0 144.99 117.651 262.445 262.882 262.445 69.717 0 136.585-27.651 185.882-76.868 49.301-49.218 76.996-115.971 76.996-185.577 0-69.602-27.695-136.354-76.996-185.574-49.297-49.216-116.164-76.868-185.882-76.868zM784.947 660.146c-33.95 0-61.299 27.363-61.299 61.197 0 8.033 1.583 15.987 4.663 23.408 3.076 7.421 7.59 14.165 13.282 19.845 5.687 5.68 12.442 10.186 19.874 13.26 7.437 3.074 15.403 4.656 23.45 4.656s16.013-1.582 23.445-4.656c7.437-3.074 14.191-7.58 19.878-13.26 5.692-5.68 10.202-12.423 13.282-19.845s4.663-15.375 4.663-23.408c0-33.834-27.409-61.197-61.239-61.197zM512 277.333c94.255 0 170.667 76.412 170.667 170.667 0 94.257-76.412 170.667-170.667 170.667-94.257 0-170.667-76.41-170.667-170.667 0-94.255 76.41-170.667 170.667-170.667z" />
<glyph unicode="&#xe95d;" glyph-name="facebook" d="M0 445.141c0-254.549 184.875-466.219 426.667-509.141v369.792h-128v142.208h128v113.792c0 128 82.475 199.083 199.125 199.083 36.949 0 76.8-5.675 113.749-11.349v-130.859h-65.408c-62.592 0-76.8-31.275-76.8-71.125v-99.541h136.533l-22.741-142.208h-113.792v-369.792c241.792 42.923 426.667 254.549 426.667 509.141 0 283.179-230.4 514.859-512 514.859s-512-231.68-512-514.859z" />
<glyph unicode="&#xe95e;" glyph-name="upload" d="M484.101 305.634v454.901l-156.267-156.266c-18.533-18.533-48.58-18.533-67.112 0-18.533 18.532-18.533 48.58 0 67.112l237.59 237.586c4.477 4.397 9.61 7.727 15.080 9.99 5.595 2.32 11.73 3.601 18.165 3.601 12.947 0 24.683-5.185 33.245-13.591l0.348-0.345 237.239-237.241c18.534-18.533 18.534-48.58 0-67.112-18.528-18.533-48.58-18.533-67.108 0l-156.268 156.266v-454.901c0-26.208-21.247-47.453-47.456-47.453s-47.456 21.245-47.456 47.453zM958.657 305.634c-26.208 0-47.453-21.245-47.453-47.453v-166.093c0-13.107-10.626-23.733-23.727-23.733h-711.838c-13.104 0-23.728 10.626-23.728 23.733v166.093c0 26.208-21.246 47.453-47.455 47.453s-47.456-21.245-47.456-47.453v-166.093c0-65.524 53.117-118.639 118.639-118.639h711.838c65.518 0 118.633 53.115 118.633 118.639v166.093c0 26.208-21.245 47.453-47.453 47.453z" />
<glyph unicode="&#xe95f;" glyph-name="wallet" d="M377.263 232.421v431.158c0 59.284 47.966 107.789 107.789 107.789h485.053v53.895c0 59.284-48.505 107.789-107.789 107.789h-754.526c-59.823 0-107.789-48.505-107.789-107.789v-754.526c0-59.284 47.966-107.789 107.789-107.789h754.526c59.284 0 107.789 48.505 107.789 107.789v53.895h-485.053c-59.823 0-107.789 48.505-107.789 107.789zM538.947 663.579c-29.642 0-53.895-24.253-53.895-53.895v-323.368c0-29.642 24.253-53.895 53.895-53.895h485.053v431.158h-485.053zM700.632 367.158c-44.733 0-80.842 36.109-80.842 80.842s36.109 80.842 80.842 80.842c44.733 0 80.842-36.109 80.842-80.842s-36.109-80.842-80.842-80.842z" />
<glyph unicode="&#xe960;" glyph-name="user-group" horiz-adv-x="1536" d="M958.039 496.063c79.175 0 142.608 63.914 142.608 143.085s-63.433 143.084-142.608 143.084c-79.175 0-143.084-63.914-143.084-143.084s63.91-143.085 143.084-143.085zM576.474 496.063c79.175 0 142.615 63.914 142.615 143.085s-63.438 143.084-142.615 143.084c-79.175 0-143.085-63.914-143.085-143.084s63.914-143.085 143.085-143.085zM576.474 400.68c-111.128 0-333.867-55.81-333.867-166.935v-71.538c0-26.229 21.464-47.693 47.693-47.693h572.343c26.229 0 47.693 21.464 47.693 47.693v71.538c0 111.129-222.736 166.935-333.865 166.935zM958.039 400.68c-13.834 0-29.571-0.953-46.266-2.392 0.953-0.477 1.432-1.432 1.912-1.912 54.365-39.587 92.050-92.53 92.050-162.641v-71.538c0-16.695-3.337-32.908-8.584-47.693h247.063c26.229 0 47.693 21.464 47.693 47.693v71.538c0 111.129-222.737 166.935-333.865 166.935z" />
<glyph unicode="&#xe961;" glyph-name="long-arrow-right" horiz-adv-x="6485" d="M6445.252 402.745c24.994 24.993 24.994 65.516 0 90.51l-407.287 407.294c-24.994 24.994-65.519 24.994-90.513 0s-24.994-65.516 0-90.51l362.035-362.039-362.035-362.035c-24.994-24.994-24.994-65.519 0-90.513s65.519-24.994 90.513 0l407.287 407.293zM0 384h6400v128h-6400v-128z" />
<glyph unicode="&#xe962;" glyph-name="user-fill" d="M512 448c141.44 0 256 114.56 256 256s-114.56 256-256 256c-141.44 0-256-114.56-256-256s114.56-256 256-256zM512 320c-170.88 0-512-85.76-512-256v-64c0-35.2 28.8-64 64-64h896c35.2 0 64 28.8 64 64v64c0 170.24-341.12 256-512 256z" />
<glyph unicode="&#xe963;" glyph-name="read" d="M504.668 476.228c-92.195 86.115-208.704 146.396-338.384 169.698-61.294 10.638-117.523-37.992-117.523-100.299v-316.095c0-85.104 36.472-129.682 86.622-136.265 126.641-16.208 241.63-68.389 335.851-145.384 17.729-14.692 46.604-16.208 64.333-2.028 94.728 77.507 210.728 130.697 338.382 146.905 47.621 6.588 86.626 53.697 86.626 102.327v350.54c0 62.307-56.227 110.937-117.526 100.299-129.677-23.302-246.189-83.583-338.381-169.698zM504.671 656.063c84.090 0 151.966 67.879 151.966 151.968s-67.877 151.969-151.966 151.969c-84.089 0-151.969-67.879-151.969-151.969s67.879-151.968 151.969-151.968z" />
<glyph unicode="&#xe965;" glyph-name="list" d="M128 362.667h170.667v170.667h-170.667v-170.667zM128 149.333h170.667v170.667h-170.667v-170.667zM128 576h170.667v170.667h-170.667v-170.667zM341.333 362.667h554.667v170.667h-554.667v-170.667zM341.333 149.333h554.667v170.667h-554.667v-170.667zM341.333 746.667v-170.667h554.667v170.667h-554.667z" />
<glyph unicode="&#xe966;" glyph-name="home" d="M400.573 44.905v275.057h222.606v-275.057c0-30.257 25.045-55.010 55.652-55.010h166.955c30.607 0 55.652 24.754 55.652 55.010v385.079h94.607c25.6 0 37.845 31.356 18.367 47.86l-465.252 414.234c-21.145 18.704-53.423 18.704-74.571 0l-465.248-414.234c-18.922-16.504-7.235-47.86 18.365-47.86h94.608v-385.079c0-30.257 25.043-55.010 55.652-55.010h166.955c30.608 0 55.652 24.754 55.652 55.010z" />
</font>
</defs>
</svg>
